  0
SECTION
  2
HEADER
  9
$ACADVER
  1
AC1015
  9
$ACADMAINTVER
 70
    20
  9
$DWGCODEPAGE
  3
ANSI_1252
  9
$INSBASE
 10
0.0
 20
0.0
 30
0.0
  9
$EXTMIN
 10
4.621108945813451
 20
4.219901776901591
 30
0.0
  9
$EXTMAX
 10
8.90711651025339
 20
7.266600437956711
 30
0.0
  9
$LIMMIN
 10
0.0
 20
0.0
  9
$LIMMAX
 10
12.0
 20
9.0
  9
$ORTHOMODE
 70
     1
  9
$REGENMODE
 70
     1
  9
$FILLMODE
 70
     1
  9
$QTEXTMODE
 70
     0
  9
$MIRRTEXT
 70
     1
  9
$LTSCALE
 40
1.0
  9
$ATTMODE
 70
     1
  9
$TEXTSIZE
 40
0.2
  9
$TRACEWID
 40
0.05
  9
$TEXTSTYLE
  7
Standard
  9
$CLAYER
  8
0
  9
$CELTYPE
  6
ByLayer
  9
$CECOLOR
 62
   256
  9
$CELTSCALE
 40
1.0
  9
$DISPSILH
 70
     0
  9
$DIMSCALE
 40
1.0
  9
$DIMASZ
 40
0.18
  9
$DIMEXO
 40
0.0625
  9
$DIMDLI
 40
0.38
  9
$DIMRND
 40
0.0
  9
$DIMDLE
 40
0.0
  9
$DIMEXE
 40
0.18
  9
$DIMTP
 40
0.0
  9
$DIMTM
 40
0.0
  9
$DIMTXT
 40
0.18
  9
$DIMCEN
 40
0.09
  9
$DIMTSZ
 40
0.0
  9
$DIMTOL
 70
     0
  9
$DIMLIM
 70
     0
  9
$DIMTIH
 70
     1
  9
$DIMTOH
 70
     1
  9
$DIMSE1
 70
     0
  9
$DIMSE2
 70
     0
  9
$DIMTAD
 70
     0
  9
$DIMZIN
 70
     0
  9
$DIMBLK
  1

  9
$DIMASO
 70
     1
  9
$DIMSHO
 70
     1
  9
$DIMPOST
  1

  9
$DIMAPOST
  1

  9
$DIMALT
 70
     0
  9
$DIMALTD
 70
     2
  9
$DIMALTF
 40
25.4
  9
$DIMLFAC
 40
1.0
  9
$DIMTOFL
 70
     0
  9
$DIMTVP
 40
0.0
  9
$DIMTIX
 70
     0
  9
$DIMSOXD
 70
     0
  9
$DIMSAH
 70
     0
  9
$DIMBLK1
  1

  9
$DIMBLK2
  1

  9
$DIMSTYLE
  2
Standard
  9
$DIMCLRD
 70
     0
  9
$DIMCLRE
 70
     0
  9
$DIMCLRT
 70
     0
  9
$DIMTFAC
 40
1.0
  9
$DIMGAP
 40
0.09
  9
$DIMJUST
 70
     0
  9
$DIMSD1
 70
     0
  9
$DIMSD2
 70
     0
  9
$DIMTOLJ
 70
     1
  9
$DIMTZIN
 70
     0
  9
$DIMALTZ
 70
     0
  9
$DIMALTTZ
 70
     0
  9
$DIMUPT
 70
     0
  9
$DIMDEC
 70
     2
  9
$DIMTDEC
 70
     2
  9
$DIMALTU
 70
     2
  9
$DIMALTTD
 70
     2
  9
$DIMTXSTY
  7
Standard
  9
$DIMAUNIT
 70
     0
  9
$DIMADEC
 70
     0
  9
$DIMALTRND
 40
0.0
  9
$DIMAZIN
 70
     0
  9
$DIMDSEP
 70
    46
  9
$DIMATFIT
 70
     3
  9
$DIMFRAC
 70
     0
  9
$DIMLDRBLK
  1

  9
$DIMLUNIT
 70
     2
  9
$DIMLWD
 70
    -2
  9
$DIMLWE
 70
    -2
  9
$DIMTMOVE
 70
     0
  9
$LUNITS
 70
     2
  9
$LUPREC
 70
     4
  9
$SKETCHINC
 40
0.1
  9
$FILLETRAD
 40
0.5
  9
$AUNITS
 70
     0
  9
$AUPREC
 70
     0
  9
$MENU
  1
.
  9
$ELEVATION
 40
0.0
  9
$PELEVATION
 40
0.0
  9
$THICKNESS
 40
0.0
  9
$LIMCHECK
 70
     0
  9
$CHAMFERA
 40
0.5
  9
$CHAMFERB
 40
0.5
  9
$CHAMFERC
 40
1.0
  9
$CHAMFERD
 40
0.0
  9
$SKPOLY
 70
     0
  9
$TDCREATE
 40
2453892.312663229
  9
$TDUCREATE
 40
2453892.479329896
  9
$TDUPDATE
 40
2453892.324677118
  9
$TDUUPDATE
 40
2453892.491343785
  9
$TDINDWG
 40
0.0030358449
  9
$TDUSRTIMER
 40
0.0030358449
  9
$USRTIMER
 70
     1
  9
$ANGBASE
 50
0.0
  9
$ANGDIR
 70
     0
  9
$PDMODE
 70
     0
  9
$PDSIZE
 40
0.0
  9
$PLINEWID
 40
0.0
  9
$SPLFRAME
 70
     0
  9
$SPLINETYPE
 70
     6
  9
$SPLINESEGS
 70
     8
  9
$HANDSEED
  5
15B
  9
$SURFTAB1
 70
     6
  9
$SURFTAB2
 70
     6
  9
$SURFTYPE
 70
     6
  9
$SURFU
 70
     6
  9
$SURFV
 70
     6
  9
$UCSBASE
  2

  9
$UCSNAME
  2

  9
$UCSORG
 10
0.0
 20
0.0
 30
0.0
  9
$UCSXDIR
 10
1.0
 20
0.0
 30
0.0
  9
$UCSYDIR
 10
0.0
 20
1.0
 30
0.0
  9
$UCSORTHOREF
  2

  9
$UCSORTHOVIEW
 70
     0
  9
$UCSORGTOP
 10
0.0
 20
0.0
 30
0.0
  9
$UCSORGBOTTOM
 10
0.0
 20
0.0
 30
0.0
  9
$UCSORGLEFT
 10
0.0
 20
0.0
 30
0.0
  9
$UCSORGRIGHT
 10
0.0
 20
0.0
 30
0.0
  9
$UCSORGFRONT
 10
0.0
 20
0.0
 30
0.0
  9
$UCSORGBACK
 10
0.0
 20
0.0
 30
0.0
  9
$PUCSBASE
  2

  9
$PUCSNAME
  2

  9
$PUCSORG
 10
0.0
 20
0.0
 30
0.0
  9
$PUCSXDIR
 10
1.0
 20
0.0
 30
0.0
  9
$PUCSYDIR
 10
0.0
 20
1.0
 30
0.0
  9
$PUCSORTHOREF
  2

  9
$PUCSORTHOVIEW
 70
     0
  9
$PUCSORGTOP
 10
0.0
 20
0.0
 30
0.0
  9
$PUCSORGBOTTOM
 10
0.0
 20
0.0
 30
0.0
  9
$PUCSORGLEFT
 10
0.0
 20
0.0
 30
0.0
  9
$PUCSORGRIGHT
 10
0.0
 20
0.0
 30
0.0
  9
$PUCSORGFRONT
 10
0.0
 20
0.0
 30
0.0
  9
$PUCSORGBACK
 10
0.0
 20
0.0
 30
0.0
  9
$USERI1
 70
     0
  9
$USERI2
 70
     0
  9
$USERI3
 70
     0
  9
$USERI4
 70
     0
  9
$USERI5
 70
     0
  9
$USERR1
 40
0.0
  9
$USERR2
 40
0.0
  9
$USERR3
 40
0.0
  9
$USERR4
 40
0.0
  9
$USERR5
 40
0.0
  9
$WORLDVIEW
 70
     1
  9
$SHADEDGE
 70
     3
  9
$SHADEDIF
 70
    70
  9
$TILEMODE
 70
     1
  9
$MAXACTVP
 70
    64
  9
$PINSBASE
 10
0.0
 20
0.0
 30
0.0
  9
$PLIMCHECK
 70
     0
  9
$PEXTMIN
 10
1.000000000000000E+20
 20
1.000000000000000E+20
 30
1.000000000000000E+20
  9
$PEXTMAX
 10
-1.000000000000000E+20
 20
-1.000000000000000E+20
 30
-1.000000000000000E+20
  9
$PLIMMIN
 10
0.0
 20
0.0
  9
$PLIMMAX
 10
12.0
 20
9.0
  9
$UNITMODE
 70
     0
  9
$VISRETAIN
 70
     1
  9
$PLINEGEN
 70
     0
  9
$PSLTSCALE
 70
     1
  9
$TREEDEPTH
 70
  3020
  9
$CMLSTYLE
  2
Standard
  9
$CMLJUST
 70
     0
  9
$CMLSCALE
 40
1.0
  9
$PROXYGRAPHICS
 70
     1
  9
$MEASUREMENT
 70
     0
  9
$CELWEIGHT
370
    -1
  9
$ENDCAPS
280
     0
  9
$JOINSTYLE
280
     0
  9
$LWDISPLAY
290
     0
  9
$INSUNITS
 70
     1
  9
$HYPERLINKBASE
  1

  9
$STYLESHEET
  1

  9
$XEDIT
290
     1
  9
$CEPSNTYPE
380
     0
  9
$PSTYLEMODE
290
     1
  9
$FINGERPRINTGUID
  2
{37500CCB-9364-428D-925A-9B8110436C89}
  9
$VERSIONGUID
  2
{92CFA7B9-464E-4599-9A98-265B823AA73C}
  9
$EXTNAMES
290
     1
  9
$PSVPSCALE
 40
0.0
  9
$OLESTARTUP
290
     0
  0
ENDSEC
  0
SECTION
  2
CLASSES
  0
CLASS
  1
ACDBDICTIONARYWDFLT
  2
AcDbDictionaryWithDefault
  3
ObjectDBX Classes
 90
        0
280
     0
281
     0
  0
CLASS
  1
ACDBPLACEHOLDER
  2
AcDbPlaceHolder
  3
ObjectDBX Classes
 90
        0
280
     0
281
     0
  0
CLASS
  1
LAYOUT
  2
AcDbLayout
  3
ObjectDBX Classes
 90
        0
280
     0
281
     0
  0
CLASS
  1
TABLESTYLE
  2
AcDbTableStyle
  3
ObjectDBX Classes
 90
     2047
280
     0
281
     0
  0
CLASS
  1
SORTENTSTABLE
  2
AcDbSortentsTable
  3
ObjectDBX Classes
 90
    32768
280
     0
281
     0
  0
CLASS
  1
DICTIONARYVAR
  2
AcDbDictionaryVar
  3
ObjectDBX Classes
 90
        0
280
     0
281
     0
  0
ENDSEC
  0
SECTION
  2
TABLES
  0
TABLE
  2
VPORT
  5
8
330
0
100
AcDbSymbolTable
 70
     5
  0
VPORT
  5
153
330
8
100
AcDbSymbolTableRecord
100
AcDbViewportTableRecord
  2
*Active
 70
     0
 10
0.0
 20
0.0
 11
1.0
 21
1.0
 12
6.838462982350318
 22
5.407017955744521
 13
0.0
 23
0.0
 14
0.5
 24
0.5
 15
0.5
 25
0.5
 16
0.0
 26
0.0
 36
1.0
 17
0.0
 27
0.0
 37
0.0
 40
4.966270127828202
 41
1.466327827191867
 42
50.0
 43
0.0
 44
0.0
 50
0.0
 51
0.0
 71
     0
 72
   100
 73
     1
 74
     3
 75
     0
 76
     0
 77
     0
 78
     0
281
     0
 65
     1
110
0.0
120
0.0
130
0.0
111
1.0
121
0.0
131
0.0
112
0.0
122
1.0
132
0.0
 79
     0
146
0.0
  0
ENDTAB
  0
TABLE
  2
LTYPE
  5
5
330
0
100
AcDbSymbolTable
 70
     1
  0
LTYPE
  5
14
330
5
100
AcDbSymbolTableRecord
100
AcDbLinetypeTableRecord
  2
ByBlock
 70
     0
  3

 72
    65
 73
     0
 40
0.0
  0
LTYPE
  5
15
330
5
100
AcDbSymbolTableRecord
100
AcDbLinetypeTableRecord
  2
ByLayer
 70
     0
  3

 72
    65
 73
     0
 40
0.0
  0
LTYPE
  5
16
330
5
100
AcDbSymbolTableRecord
100
AcDbLinetypeTableRecord
  2
Continuous
 70
     0
  3
Solid line
 72
    65
 73
     0
 40
0.0
  0
ENDTAB
  0
TABLE
  2
LAYER
  5
2
102
{ACAD_XDICTIONARY
360
DA
102
}
330
0
100
AcDbSymbolTable
 70
     5
  0
LAYER
  5
10
330
2
100
AcDbSymbolTableRecord
100
AcDbLayerTableRecord
  2
0
 70
     0
 62
     7
  6
Continuous
370
    -3
390
F
  0
LAYER
  5
34
330
2
100
AcDbSymbolTableRecord
100
AcDbLayerTableRecord
  2
L
 70
     0
 62
     7
  6
Continuous
370
    -3
390
F
  0
LAYER
  5
45
330
2
100
AcDbSymbolTableRecord
100
AcDbLayerTableRecord
  2
Defpoints
 70
     0
 62
     7
  6
Continuous
290
     0
370
    -3
390
F
  0
LAYER
  5
88
330
2
100
AcDbSymbolTableRecord
100
AcDbLayerTableRecord
  2
tx
 70
     0
 62
   150
  6
Continuous
370
    -3
390
F
  0
LAYER
  5
D2
330
2
100
AcDbSymbolTableRecord
100
AcDbLayerTableRecord
  2
MAIN
 70
     0
 62
     7
  6
Continuous
370
    -3
390
F
  0
ENDTAB
  0
TABLE
  2
STYLE
  5
3
330
0
100
AcDbSymbolTable
 70
     6
  0
STYLE
  5
11
330
3
100
AcDbSymbolTableRecord
100
AcDbTextStyleTableRecord
  2
Standard
 70
     0
 40
0.0
 41
1.0
 50
0.0
 71
     0
 42
0.2
  3
txt
  4

  0
STYLE
  5
35
330
3
100
AcDbSymbolTableRecord
100
AcDbTextStyleTableRecord
  2
REG
 70
     0
 40
0.0
 41
1.0
 50
0.0
 71
     0
 42
0.09375
  3
E:\R13\com\fonts\ARCHITXT.SHX
  4

  0
STYLE
  5
36
330
3
100
AcDbSymbolTableRecord
100
AcDbTextStyleTableRecord
  2
DIMTXT
 70
     0
 40
0.0
 41
1.0
 50
0.0
 71
     0
 42
1.125
  3
archt.shx
  4

  0
STYLE
  5
D3
330
3
100
AcDbSymbolTableRecord
100
AcDbTextStyleTableRecord
  2
BLD
 70
     0
 40
0.0
 41
1.0
 50
0.0
 71
     0
 42
0.09375
  3
romand.shx
  4

  0
STYLE
  5
D4
330
3
100
AcDbSymbolTableRecord
100
AcDbTextStyleTableRecord
  2
REG2
 70
     0
 40
0.0
 41
0.9
 50
0.0
 71
     0
 42
0.75
  3
E:\R13\com\fonts\romans.shx
  4

  0
STYLE
  5
D5
330
3
100
AcDbSymbolTableRecord
100
AcDbTextStyleTableRecord
  2
ROM2
 70
     0
 40
0.0
 41
0.95
 50
0.0
 71
     0
 42
1.0
  3
ROMANS
  4

  0
ENDTAB
  0
TABLE
  2
VIEW
  5
6
330
0
100
AcDbSymbolTable
 70
     0
  0
ENDTAB
  0
TABLE
  2
UCS
  5
7
330
0
100
AcDbSymbolTable
 70
     0
  0
ENDTAB
  0
TABLE
  2
APPID
  5
9
330
0
100
AcDbSymbolTable
 70
     1
  0
APPID
  5
12
330
9
100
AcDbSymbolTableRecord
100
AcDbRegAppTableRecord
  2
ACAD
 70
     0
  0
ENDTAB
  0
TABLE
  2
DIMSTYLE
  5
A
330
0
100
AcDbSymbolTable
 70
    10
100
AcDbDimStyleTable
 71
     1
340
27
  0
DIMSTYLE
105
27
102
{ACAD_REACTORS
330
132
330
140
102
}
330
A
100
AcDbSymbolTableRecord
100
AcDbDimStyleTableRecord
  2
Standard
 70
     0
271
     2
272
     2
340
11
  0
DIMSTYLE
105
37
330
A
100
AcDbSymbolTableRecord
100
AcDbDimStyleTableRecord
  2
1
 70
     0
 41
1.125
 42
0.5
 43
0.375
 44
1.19921875
 46
0.5
 73
     0
 74
     0
 77
     1
 78
     3
140
1.125
141
0.125
146
0.8
147
0.5625
172
     1
174
     1
176
   133
177
   133
178
   150
271
     3
272
     3
276
     1
279
     1
340
36
  0
DIMSTYLE
105
38
330
A
100
AcDbSymbolTableRecord
100
AcDbDimStyleTableRecord
  2
1$2
 70
     0
 41
1.5
 42
0.5
 43
0.375
 44
1.19921875
 46
0.5
 73
     0
 74
     0
 77
     1
 78
     3
140
0.75
141
0.125
146
0.8
147
0.5625
172
     1
174
     1
176
   133
177
   133
178
   150
271
     3
272
     3
276
     1
279
     1
340
36
342
30
  0
DIMSTYLE
105
39
330
A
100
AcDbSymbolTableRecord
100
AcDbDimStyleTableRecord
  2
1$4
 70
     0
 41
1.5
 42
0.5
 43
0.375
 44
1.19921875
 46
0.5
 73
     0
 74
     0
 77
     1
 78
     3
140
0.75
141
0.125
146
0.8
147
0.5625
172
     1
173
     1
174
     1
176
   133
177
   133
178
   150
271
     3
272
     3
276
     1
279
     1
340
36
344
30
  0
DIMSTYLE
105
3A
330
A
100
AcDbSymbolTableRecord
100
AcDbDimStyleTableRecord
  2
1$3
 70
     0
 41
1.5
 42
0.5
 43
0.375
 44
1.19921875
 46
0.5
 73
     0
 74
     0
 77
     1
 78
     3
140
0.75
141
0.125
146
0.8
147
0.5625
172
     1
174
     1
176
   133
177
   133
178
   150
271
     3
272
     3
276
     1
279
     1
340
36
342
30
  0
DIMSTYLE
105
3B
330
A
100
AcDbSymbolTableRecord
100
AcDbDimStyleTableRecord
  2
1$7
 70
     0
 41
1.0
 42
0.5
 43
0.375
 44
1.19921875
 46
0.5
 73
     0
 74
     0
 77
     1
 78
     3
140
0.75
141
0.125
146
0.8
147
0.5625
172
     1
174
     1
176
   133
177
   133
178
   150
271
     3
272
     3
276
     1
279
     1
340
36
341
2B
  0
DIMSTYLE
105
D6
330
A
100
AcDbSymbolTableRecord
100
AcDbDimStyleTableRecord
  2
Standard$2
 70
     0
 40
0.0
 41
0.625
 42
0.5
 43
0.375
 44
0.375
 78
     4
 79
     1
140
0.625
141
0.125
146
0.8
147
0.25
176
   133
177
   133
178
   150
271
     3
272
     3
276
     1
288
     1
340
D5
  0
DIMSTYLE
105
D7
330
A
100
AcDbSymbolTableRecord
100
AcDbDimStyleTableRecord
  2
Standard$4
 70
     0
 40
0.0
 41
0.625
 42
0.5
 43
0.375
 44
0.375
 78
     4
 79
     1
140
0.625
141
0.125
146
0.8
147
0.25
173
     1
176
   133
177
   133
178
   150
271
     3
272
     3
276
     1
288
     1
340
D5
343
30
  0
DIMSTYLE
105
D8
330
A
100
AcDbSymbolTableRecord
100
AcDbDimStyleTableRecord
  2
Standard$3
 70
     0
 40
0.0
 41
0.625
 42
0.5
 43
0.375
 44
0.375
 78
     4
 79
     1
140
0.625
141
0.125
146
0.8
147
0.25
176
   133
177
   133
178
   150
271
     3
272
     3
276
     1
288
     1
340
D5
  0
DIMSTYLE
105
D9
330
A
100
AcDbSymbolTableRecord
100
AcDbDimStyleTableRecord
  2
Standard$7
 70
     0
 40
0.0
 41
0.625
 42
0.5
 43
0.375
 44
0.375
 78
     4
 79
     1
140
0.5
141
0.125
146
0.8
147
0.25
176
   133
177
   133
178
   150
271
     3
272
     3
276
     1
289
     0
340
D5
342
30
  0
ENDTAB
  0
TABLE
  2
BLOCK_RECORD
  5
1
330
0
100
AcDbSymbolTable
 70
     9
  0
BLOCK_RECORD
  5
1F
330
1
100
AcDbSymbolTableRecord
100
AcDbBlockTableRecord
  2
*Model_Space
340
22
  0
BLOCK_RECORD
  5
1B
330
1
100
AcDbSymbolTableRecord
100
AcDbBlockTableRecord
  2
*Paper_Space
340
1E
  0
BLOCK_RECORD
  5
23
330
1
100
AcDbSymbolTableRecord
100
AcDbBlockTableRecord
  2
*Paper_Space0
340
26
  0
BLOCK_RECORD
  5
2B
330
1
100
AcDbSymbolTableRecord
100
AcDbBlockTableRecord
  2
_Dot
340
0
  0
BLOCK_RECORD
  5
30
330
1
100
AcDbSymbolTableRecord
100
AcDbBlockTableRecord
  2
_DotSmall
340
0
102
{BLKREFS
331
BE
331
BF
331
CB
331
CC
102
}
  0
BLOCK_RECORD
  5
F9
330
1
100
AcDbSymbolTableRecord
100
AcDbBlockTableRecord
  2
*D5
340
0
  0
BLOCK_RECORD
  5
106
330
1
100
AcDbSymbolTableRecord
100
AcDbBlockTableRecord
  2
*D6
340
0
  0
BLOCK_RECORD
  5
133
330
1
100
AcDbSymbolTableRecord
100
AcDbBlockTableRecord
  2
*D7
340
0
  0
BLOCK_RECORD
  5
141
330
1
100
AcDbSymbolTableRecord
100
AcDbBlockTableRecord
  2
*D8
340
0
  0
ENDTAB
  0
ENDSEC
  0
SECTION
  2
BLOCKS
  0
BLOCK
  5
20
330
1F
100
AcDbEntity
  8
0
100
AcDbBlockBegin
  2
*Model_Space
 70
     0
 10
0.0
 20
0.0
 30
0.0
  3
*Model_Space
  1

  0
ENDBLK
  5
21
330
1F
100
AcDbEntity
  8
0
100
AcDbBlockEnd
  0
BLOCK
  5
1C
330
1B
100
AcDbEntity
 67
     1
  8
0
100
AcDbBlockBegin
  2
*Paper_Space
 70
     0
 10
0.0
 20
0.0
 30
0.0
  3
*Paper_Space
  1

  0
ENDBLK
  5
1D
330
1B
100
AcDbEntity
 67
     1
  8
0
100
AcDbBlockEnd
  0
BLOCK
  5
24
330
23
100
AcDbEntity
  8
0
100
AcDbBlockBegin
  2
*Paper_Space0
 70
     0
 10
0.0
 20
0.0
 30
0.0
  3
*Paper_Space0
  1

  0
ENDBLK
  5
25
330
23
100
AcDbEntity
  8
0
100
AcDbBlockEnd
  0
BLOCK
  5
2E
330
2B
100
AcDbEntity
  8
0
100
AcDbBlockBegin
  2
_Dot
 70
     0
 10
0.0
 20
0.0
 30
0.0
  3
_Dot
  1

  0
LWPOLYLINE
  5
2C
330
2B
100
AcDbEntity
  8
L
 62
     0
100
AcDbPolyline
 90
        2
 70
     1
 43
0.5
 10
-0.25
 20
0.0
 42
1.0
 10
0.25
 20
0.0
 42
1.0
  0
LINE
  5
2D
330
2B
100
AcDbEntity
  8
L
 62
     0
370
    -2
100
AcDbLine
 10
-0.5
 20
0.0
 30
0.0
 11
-1.0
 21
0.0
 31
0.0
  0
ENDBLK
  5
2F
330
2B
100
AcDbEntity
  8
0
100
AcDbBlockEnd
  0
BLOCK
  5
32
330
30
100
AcDbEntity
  8
0
 48
0.116666
100
AcDbBlockBegin
  2
_DotSmall
 70
     0
 10
0.0
 20
0.0
 30
0.0
  3
_DotSmall
  1

  0
LWPOLYLINE
  5
31
330
30
100
AcDbEntity
  8
0
  6
ByBlock
 62
     0
100
AcDbPolyline
 90
        2
 70
     1
 43
0.5
 10
-0.0625
 20
0.0
 42
1.0
 10
0.0625
 20
0.0
 42
1.0
  0
ENDBLK
  5
33
330
30
100
AcDbEntity
  8
0
 48
0.116666
100
AcDbBlockEnd
  0
BLOCK
  5
104
330
F9
100
AcDbEntity
  8
0
100
AcDbBlockBegin
  2
*D5
 70
     1
 10
0.0
 20
0.0
 30
0.0
  3
*D5
  1

  0
LINE
  5
113
330
F9
100
AcDbEntity
  8
MAIN
 62
     0
370
    -2
100
AcDbLine
 10
5.371099048096162
 20
4.915207581696494
 30
0.0
 11
5.371099048096162
 21
6.940298012361814
 31
0.0
  0
LINE
  5
114
330
F9
100
AcDbEntity
  8
MAIN
 62
     0
370
    -2
100
AcDbLine
 10
8.620846711579666
 20
4.915207581696039
 30
0.0
 11
8.620846711579666
 21
6.940298012361814
 31
0.0
  0
LINE
  5
115
330
F9
100
AcDbEntity
  8
MAIN
 62
     0
370
    -2
100
AcDbLine
 10
5.398099048096162
 20
6.913298012361813
 30
0.0
 11
6.941972879837914
 21
6.913298012361813
 31
0.0
  0
LINE
  5
116
330
F9
100
AcDbEntity
  8
MAIN
 62
     0
370
    -2
100
AcDbLine
 10
8.593846711579667
 20
6.913298012361813
 30
0.0
 11
7.049972879837914
 21
6.913298012361813
 31
0.0
  0
SOLID
  5
117
330
F9
100
AcDbEntity
  8
MAIN
 62
     0
100
AcDbTrace
 10
5.398099048096162
 20
6.917798012361814
 30
0.0
 11
5.398099048096162
 21
6.908798012361813
 31
0.0
 12
5.371099048096162
 22
6.913298012361813
 32
0.0
 13
5.371099048096162
 23
6.913298012361813
 33
0.0
  0
SOLID
  5
118
330
F9
100
AcDbEntity
  8
MAIN
 62
     0
100
AcDbTrace
 10
8.593846711579667
 20
6.917798012361814
 30
0.0
 11
8.593846711579667
 21
6.908798012361813
 31
0.0
 12
8.620846711579666
 22
6.913298012361813
 32
0.0
 13
8.620846711579666
 23
6.913298012361813
 33
0.0
  0
MTEXT
  5
119
330
F9
100
AcDbEntity
  8
MAIN
 62
     0
100
AcDbMText
 10
6.995972879837914
 20
6.913298012361813
 30
0.0
 40
0.027
 41
0.0
 71
     5
 72
     1
  1
\A1;3.25
 73
     1
 44
1.0
1001
ACAD
1000
MTEXTBEGIN
1070
    73
1070
     1
1070
    44
1040
1.0
1070
    74
1070
     0
1000
MTEXTEND
  0
POINT
  5
11A
330
F9
100
AcDbEntity
  8
Defpoints
 62
     0
100
AcDbPoint
 10
5.371099048096162
 20
4.905832581696493
 30
0.0
  0
POINT
  5
11B
330
F9
100
AcDbEntity
  8
Defpoints
 62
     0
100
AcDbPoint
 10
8.620846711579666
 20
4.905832581696039
 30
0.0
  0
POINT
  5
11C
330
F9
100
AcDbEntity
  8
Defpoints
 62
     0
100
AcDbPoint
 10
8.620846711579666
 20
6.913298012361813
 30
0.0
  0
ENDBLK
  5
105
330
F9
100
AcDbEntity
  8
0
100
AcDbBlockEnd
  0
BLOCK
  5
111
330
106
100
AcDbEntity
  8
0
100
AcDbBlockBegin
  2
*D6
 70
     1
 10
0.0
 20
0.0
 30
0.0
  3
*D6
  1

  0
LINE
  5
11D
330
106
100
AcDbEntity
  8
MAIN
 62
     0
370
    -2
100
AcDbLine
 10
6.713233393871801
 20
6.487425068611763
 30
0.0
 11
5.010084165997009
 21
6.487425068611764
 31
0.0
  0
LINE
  5
11E
330
106
100
AcDbEntity
  8
MAIN
 62
     0
370
    -2
100
AcDbLine
 10
5.381722495255585
 20
4.885583360512576
 30
0.0
 11
5.010084165997008
 21
4.885583360512576
 31
0.0
  0
LINE
  5
11F
330
106
100
AcDbEntity
  8
MAIN
 62
     0
370
    -2
100
AcDbLine
 10
5.037084165997009
 20
6.460425068611764
 30
0.0
 11
5.037084165997008
 21
5.713504214562171
 31
0.0
  0
LINE
  5
120
330
106
100
AcDbEntity
  8
MAIN
 62
     0
370
    -2
100
AcDbLine
 10
5.037084165997008
 20
4.912583360512576
 30
0.0
 11
5.037084165997008
 21
5.65950421456217
 31
0.0
  0
SOLID
  5
121
330
106
100
AcDbEntity
  8
MAIN
 62
     0
100
AcDbTrace
 10
5.032584165997008
 20
6.460425068611764
 30
0.0
 11
5.041584165997009
 21
6.460425068611764
 31
0.0
 12
5.037084165997009
 22
6.487425068611764
 32
0.0
 13
5.037084165997009
 23
6.487425068611764
 33
0.0
  0
SOLID
  5
122
330
106
100
AcDbEntity
  8
MAIN
 62
     0
100
AcDbTrace
 10
5.032584165997008
 20
4.912583360512576
 30
0.0
 11
5.041584165997008
 21
4.912583360512576
 31
0.0
 12
5.037084165997008
 22
4.885583360512576
 32
0.0
 13
5.037084165997008
 23
4.885583360512576
 33
0.0
  0
MTEXT
  5
123
330
106
100
AcDbEntity
  8
MAIN
 62
     0
100
AcDbMText
 10
5.037084165997007
 20
5.686504214562171
 30
0.0
 40
0.027
 41
0.0
 71
     5
 72
     1
  1
\A1;1.60
 73
     1
 44
1.0
1001
ACAD
1000
MTEXTBEGIN
1070
    73
1070
     1
1070
    44
1040
1.0
1070
    74
1070
     0
1000
MTEXTEND
  0
POINT
  5
124
330
106
100
AcDbEntity
  8
Defpoints
 62
     0
100
AcDbPoint
 10
6.722608393871801
 20
6.487425068611763
 30
0.0
  0
POINT
  5
125
330
106
100
AcDbEntity
  8
Defpoints
 62
     0
100
AcDbPoint
 10
5.391097495255586
 20
4.885583360512576
 30
0.0
  0
POINT
  5
126
330
106
100
AcDbEntity
  8
Defpoints
 62
     0
100
AcDbPoint
 10
5.037084165997008
 20
4.885583360512576
 30
0.0
  0
ENDBLK
  5
112
330
106
100
AcDbEntity
  8
0
100
AcDbBlockEnd
  0
BLOCK
  5
13E
330
133
100
AcDbEntity
  8
0
100
AcDbBlockBegin
  2
*D7
 70
     1
 10
0.0
 20
0.0
 30
0.0
  3
*D7
  1

  0
LINE
  5
134
330
133
100
AcDbEntity
  8
0
 62
     0
370
    -2
100
AcDbLine
 10
5.371097495255917
 20
4.96808336051254
 30
0.0
 11
5.371097495255917
 21
7.266600437956711
 31
0.0
  0
LINE
  5
135
330
133
100
AcDbEntity
  8
0
 62
     0
370
    -2
100
AcDbLine
 10
8.620848264420052
 20
4.968083360500918
 30
0.0
 11
8.620848264420052
 21
7.266600437956711
 31
0.0
  0
LINE
  5
136
330
133
100
AcDbEntity
  8
0
 62
     0
370
    -2
100
AcDbLine
 10
5.551097495255917
 20
7.086600437956711
 30
0.0
 11
6.635972879837985
 21
7.086600437956711
 31
0.0
  0
LINE
  5
137
330
133
100
AcDbEntity
  8
0
 62
     0
370
    -2
100
AcDbLine
 10
8.440848264420052
 20
7.086600437956711
 30
0.0
 11
7.355972879837985
 21
7.086600437956711
 31
0.0
  0
SOLID
  5
138
330
133
100
AcDbEntity
  8
0
 62
     0
100
AcDbTrace
 10
5.551097495255917
 20
7.116600437956711
 30
0.0
 11
5.551097495255917
 21
7.056600437956711
 31
0.0
 12
5.371097495255917
 22
7.086600437956711
 32
0.0
 13
5.371097495255917
 23
7.086600437956711
 33
0.0
  0
SOLID
  5
139
330
133
100
AcDbEntity
  8
0
 62
     0
100
AcDbTrace
 10
8.440848264420052
 20
7.116600437956711
 30
0.0
 11
8.440848264420052
 21
7.056600437956711
 31
0.0
 12
8.620848264420052
 22
7.086600437956711
 32
0.0
 13
8.620848264420052
 23
7.086600437956711
 33
0.0
  0
MTEXT
  5
13A
330
133
100
AcDbEntity
  8
0
 62
     0
100
AcDbMText
 10
6.995972879837985
 20
7.086600437956711
 30
0.0
 40
0.18
 41
0.0
 71
     5
 72
     1
  1
\A1;3.25
 73
     1
 44
1.0
1001
ACAD
1000
MTEXTBEGIN
1070
    73
1070
     1
1070
    44
1040
1.0
1070
    74
1070
     0
1000
MTEXTEND
  0
POINT
  5
13B
330
133
100
AcDbEntity
  8
Defpoints
 62
     0
100
AcDbPoint
 10
5.371097495255917
 20
4.90558336051254
 30
0.0
  0
POINT
  5
13C
330
133
100
AcDbEntity
  8
Defpoints
 62
     0
100
AcDbPoint
 10
8.620848264420052
 20
4.905583360500918
 30
0.0
  0
POINT
  5
13D
330
133
100
AcDbEntity
  8
Defpoints
 62
     0
100
AcDbPoint
 10
8.620848264420052
 20
7.086600437956711
 30
0.0
  0
ENDBLK
  5
13F
330
133
100
AcDbEntity
  8
0
100
AcDbBlockEnd
  0
BLOCK
  5
14C
330
141
100
AcDbEntity
  8
0
100
AcDbBlockBegin
  2
*D8
 70
     1
 10
0.0
 20
0.0
 30
0.0
  3
*D8
  1

  0
LINE
  5
142
330
141
100
AcDbEntity
  8
0
 62
     0
370
    -2
100
AcDbLine
 10
6.663472879860744
 20
6.487710093744329
 30
0.0
 11
4.666108945813451
 21
6.48771009374433
 31
0.0
  0
LINE
  5
143
330
141
100
AcDbEntity
  8
0
 62
     0
370
    -2
100
AcDbLine
 10
5.328597495255586
 20
4.885583360512576
 30
0.0
 11
4.666108945813451
 21
4.885583360512576
 31
0.0
  0
LINE
  5
144
330
141
100
AcDbEntity
  8
0
 62
     0
370
    -2
100
AcDbLine
 10
4.846108945813452
 20
6.30771009374433
 30
0.0
 11
4.846108945813451
 21
5.866646727128453
 31
0.0
  0
LINE
  5
145
330
141
100
AcDbEntity
  8
0
 62
     0
370
    -2
100
AcDbLine
 10
4.846108945813451
 20
5.065583360512576
 30
0.0
 11
4.846108945813451
 21
5.506646727128454
 31
0.0
  0
SOLID
  5
146
330
141
100
AcDbEntity
  8
0
 62
     0
100
AcDbTrace
 10
4.816108945813452
 20
6.30771009374433
 30
0.0
 11
4.876108945813452
 21
6.30771009374433
 31
0.0
 12
4.846108945813452
 22
6.48771009374433
 32
0.0
 13
4.846108945813452
 23
6.48771009374433
 33
0.0
  0
SOLID
  5
147
330
141
100
AcDbEntity
  8
0
 62
     0
100
AcDbTrace
 10
4.816108945813451
 20
5.065583360512576
 30
0.0
 11
4.876108945813451
 21
5.065583360512576
 31
0.0
 12
4.846108945813451
 22
4.885583360512576
 32
0.0
 13
4.846108945813451
 23
4.885583360512576
 33
0.0
  0
MTEXT
  5
148
330
141
100
AcDbEntity
  8
0
 62
     0
100
AcDbMText
 10
4.84610894581345
 20
5.686646727128454
 30
0.0
 40
0.18
 41
0.0
 71
     5
 72
     1
  1
\A1;1.60
 73
     1
 44
1.0
1001
ACAD
1000
MTEXTBEGIN
1070
    73
1070
     1
1070
    44
1040
1.0
1070
    74
1070
     0
1000
MTEXTEND
  0
POINT
  5
149
330
141
100
AcDbEntity
  8
Defpoints
 62
     0
100
AcDbPoint
 10
6.725972879860744
 20
6.487710093744329
 30
0.0
  0
POINT
  5
14A
330
141
100
AcDbEntity
  8
Defpoints
 62
     0
100
AcDbPoint
 10
5.391097495255586
 20
4.885583360512576
 30
0.0
  0
POINT
  5
14B
330
141
100
AcDbEntity
  8
Defpoints
 62
     0
100
AcDbPoint
 10
4.846108945813451
 20
4.885583360512576
 30
0.0
  0
ENDBLK
  5
14D
330
141
100
AcDbEntity
  8
0
100
AcDbBlockEnd
  0
ENDSEC
  0
SECTION
  2
ENTITIES
  0
LWPOLYLINE
  5
EF
330
1F
100
AcDbEntity
  8
MAIN
 62
     5
 48
0.116666
100
AcDbPolyline
 90
        2
 70
     0
 43
0.0
 10
5.37097287984951
 20
4.965583360512617
 10
5.3729433052575
 20
4.965583360512617
  0
LWPOLYLINE
  5
F0
330
1F
100
AcDbEntity
  8
MAIN
 62
     5
 48
0.116666
100
AcDbPolyline
 90
        2
 70
     0
 43
0.0
 10
8.61900245444152
 20
4.965583360512731
 10
8.620972879849738
 20
4.965583360512731
  0
LWPOLYLINE
  5
F1
330
1F
100
AcDbEntity
  8
MAIN
 62
     5
 48
0.116666
100
AcDbPolyline
 90
       56
 70
     1
 43
0.0
 10
6.722608393871801
 20
6.487425068611763
 42
0.3620019708460906
 10
5.371099048096162
 20
4.90583258169638
 42
0.4178681443290538
 10
5.391097495255586
 20
4.885583360512576
 10
8.600848264443207
 20
4.885583360512576
 42
0.4178681443323923
 10
8.620846711579666
 20
4.905832581696039
 42
0.3620019708462109
 10
7.269337365830402
 20
6.487425068634955
 42
0.464633254312887
 10
7.24597287984951
 20
6.46771009376598
 10
7.245972879849738
 20
6.332737797919115
 42
0.4142135623730951
 10
7.255972879849728
 20
6.322737797919124
 10
7.325972879849437
 20
6.322737797919238
 42
-0.4142135623797547
 10
7.335972879849656
 20
6.312737797919247
 10
7.335972879849428
 20
6.312737797919247
 10
7.335972879848974
 20
6.207737797919229
 42
-0.4142135623730951
 10
7.325972879848983
 20
6.197737797919238
 10
7.255972879849728
 20
6.197737797919238
 42
0.4142135623797547
 10
7.24597287984951
 20
6.187737797919247
 10
7.245972879849738
 20
6.187737797919247
 10
7.245972879849965
 20
5.952058068796667
 42
0.0716350180418754
 10
7.247191914802748
 20
5.943593079076912
 10
7.348200322766921
 20
5.600164491999656
 42
0.3327064143887904
 10
7.434543217908263
 20
5.535559461159003
 10
7.905972879849592
 20
5.535559461159117
 42
-0.4142135623733131
 10
7.99597287984951
 20
5.445559461159085
 10
7.99597287984951
 20
5.145583360512567
 42
-0.4142135623730951
 10
7.965972879849537
 20
5.115583360512594
 10
7.905972879849365
 20
5.115583360512594
 42
0.9999999999999998
 10
7.905972879849365
 20
5.045583360512544
 10
7.985972879849747
 20
5.045583360512544
 42
-0.4142135623740464
 10
7.995972879849738
 20
5.035583360512553
 10
7.99597287984951
 20
4.975583360512608
 42
-0.4142135623722627
 10
7.985972879849519
 20
4.965583360512617
 10
6.005972879849501
 20
4.965583360512617
 42
-0.4142135623740464
 10
5.99597287984951
 20
4.975583360512608
 10
5.99597287984951
 20
5.035583360512553
 42
-0.4142135623722627
 10
6.005972879849501
 20
5.045583360512544
 10
6.085972879849656
 20
5.045583360512772
 42
0.9999999999999998
 10
6.085972879849656
 20
5.115583360512708
 10
6.02597287984971
 20
5.115583360512822
 42
-0.4142135623728932
 10
5.995972879849738
 20
5.145583360512794
 10
5.995972879849283
 20
5.445559461159199
 42
-0.4142135623730356
 10
6.085972879849201
 20
5.53555946115923
 10
6.557402541790303
 20
5.53555946115923
 42
0.3327064143886522
 10
6.643745436931645
 20
5.600164491999883
 10
6.744753844896955
 20
5.94359307907964
 42
0.071635018041338
 10
6.745972879849738
 20
5.952058068799395
 10
6.745972879849738
 20
6.187737797919361
 42
0.4142135623730951
 10
6.735972879849747
 20
6.197737797919351
 10
6.665972879849356
 20
6.197737797919238
 42
-0.4142135623664355
 10
6.655972879849592
 20
6.207737797919229
 10
6.655972879849365
 20
6.207737797919229
 10
6.655972879849365
 20
6.312737797919247
 10
6.655972879849592
 20
6.312737797919247
 42
-0.4142135623664355
 10
6.665972879849356
 20
6.322737797919238
 10
6.735972879849974
 20
6.322737797919238
 42
0.4142135623664355
 10
6.745972879849965
 20
6.332737797919229
 10
6.745972879849055
 20
6.467710093765866
 42
0.464633254312887
  0
LWPOLYLINE
  5
F2
330
1F
100
AcDbEntity
  8
MAIN
 62
     5
 48
0.116666
100
AcDbPolyline
 90
       23
 70
     1
 43
0.0
 10
8.25726244269034
 20
5.700414509742039
 42
-0.2591127950647645
 10
8.164581606141688
 20
5.647270011351473
 42
-0.9999999999999687
 10
8.163903231303116
 20
5.697265409215354
 42
2.294111753595904
 10
8.103196781403617
 20
5.760851600888621
 42
-1.000000000004539
 10
8.053286447993137
 20
5.763844696085719
 42
-0.3246420723829082
 10
8.135313864535042
 20
5.863695462319945
 42
0.5602544463402824
 10
8.150149984000641
 20
5.91266671265739
 42
0.130231658156015
 10
7.490164799049431
 20
6.349413728758143
 42
0.5131294513224118
 10
7.410972879849246
 20
6.292565947442902
 10
7.410972879849246
 20
6.178927298242705
 42
-0.3419987130823289
 10
7.365972879842125
 20
6.120832548110477
 42
0.3419987130806174
 10
7.32097287985001
 20
6.062737797919361
 10
7.320972879849556
 20
5.967179016877501
 42
0.0716350180422711
 10
7.323410949755121
 20
5.950249037437764
 10
7.415515233872461
 20
5.637094471439489
 42
0.3327064143881542
 10
7.444296198919651
 20
5.615559461159271
 10
7.905972879849592
 20
5.615559461159158
 42
-0.414213562373291
 10
8.075972879849665
 20
5.445559461158971
 10
8.07597287984921
 20
5.025583360512676
 42
0.4142135623730951
 10
8.135972879849155
 20
4.965583360512731
 10
8.474358824021315
 20
4.965583360512503
 42
0.4421457434959168
 10
8.534091589443356
 20
5.031239926169313
 42
0.1158560608769618
 10
8.308430676796056
 20
5.700739499676863
 42
0.5602544463407505
  0
LWPOLYLINE
  5
F3
330
1F
100
AcDbEntity
  8
MAIN
 62
     5
 48
0.116666
100
AcDbPolyline
 90
       23
 70
     1
 43
0.0
 10
5.84179577570179
 20
5.91266671265398
 42
0.5602544463407046
 10
5.856631895163523
 20
5.863695462319718
 42
-0.3246420723824746
 10
5.938659311705428
 20
5.763844696085833
 42
-1.000000000002215
 10
5.888748978294948
 20
5.760851600888621
 42
2.294111753594267
 10
5.82804252839545
 20
5.697265409215468
 42
-1.000000000000669
 10
5.827364153556878
 20
5.647270011351359
 42
-0.2591127950650677
 10
5.734683317007998
 20
5.700414509742039
 42
0.5602544463421033
 10
5.683515082898189
 20
5.700739499679706
 42
0.1158560608774299
 10
5.457854170230426
 20
5.031239926171586
 42
0.4421457434978787
 10
5.517586935677478
 20
4.965583360512617
 10
5.855972879849865
 20
4.965583360512617
 42
0.4142135623730951
 10
5.91597287984981
 20
5.025583360512563
 10
5.91597287984981
 20
5.445559461159085
 42
-0.4142135623732911
 10
6.085972879849201
 20
5.615559461159158
 10
6.547649560778914
 20
5.615559461159271
 42
0.3327064143881545
 10
6.576430525826104
 20
5.637094471439489
 10
6.668534809944354
 20
5.950249037440947
 42
0.0716350180413188
 10
6.670972879849919
 20
5.967179016880457
 10
6.670972879849919
 20
6.062737797919247
 42
0.3419987130854363
 10
6.625972879842116
 20
6.120832548052042
 42
-0.3419987130847159
 10
6.580972879849319
 20
6.178927298243159
 10
6.580972879849092
 20
6.292565947442902
 42
0.5131294513216944
 10
6.501780960657093
 20
6.349413728734042
 42
0.1302316581569519
  0
TEXT
  5
F5
330
1F
100
AcDbEntity
  8
tx
 48
0.116666
100
AcDbText
 10
5.346543693548532
 20
4.219901776901586
 30
0.0
 40
0.09375
  1
SCALE : 1"=1"
  7
BLD
 11
5.346543693548532
 21
4.313651776901586
 31
0.0
100
AcDbText
 73
     3
  0
TEXT
  5
F6
330
1F
100
AcDbEntity
  8
MAIN
 62
     3
 48
0.116666
100
AcDbText
 10
5.346543693548532
 20
4.501123462263556
 30
0.0
 40
0.1125
  1
1/2 ROUND RADIUS LED PART #1995
  7
BLD
100
AcDbText
  0
LWPOLYLINE
  5
F7
330
1F
100
AcDbEntity
  8
MAIN
 62
     5
 48
0.116666
100
AcDbPolyline
 90
        2
 70
     0
 43
0.01875
 10
5.252807850867434
 20
4.407387619582571
 10
8.750361505532517
 20
4.407387619582571
  0
DIMENSION
  5
132
330
1F
100
AcDbEntity
  8
0
100
AcDbDimension
  2
*D7
 10
8.620848264420052
 20
7.086600437956711
 30
0.0
 11
6.995972879837985
 21
7.086600437956711
 31
0.0
 70
    32
 71
     5
 42
3.249750769164134
  3
Standard
100
AcDbAlignedDimension
 13
5.371097495255917
 23
4.90558336051254
 33
0.0
 14
8.620848264420052
 24
4.905583360500918
 34
0.0
100
AcDbRotatedDimension
  0
DIMENSION
  5
140
330
1F
100
AcDbEntity
  8
0
100
AcDbDimension
  2
*D8
 10
4.846108945813451
 20
4.885583360512576
 30
0.0
 11
4.84610894581345
 21
5.686646727128454
 31
0.0
 70
    32
 71
     5
 42
1.602126733231753
  3
Standard
100
AcDbAlignedDimension
 13
6.725972879860744
 23
6.487710093744329
 33
0.0
 14
5.391097495255586
 24
4.885583360512576
 34
0.0
 50
90.0
100
AcDbRotatedDimension
  0
ENDSEC
  0
SECTION
  2
OBJECTS
  0
DICTIONARY
  5
C
330
0
100
AcDbDictionary
281
     1
  3
ACAD_COLOR
350
B2
  3
ACAD_GROUP
350
D
  3
ACAD_LAYOUT
350
1A
  3
ACAD_MATERIAL
350
B1
  3
ACAD_MLINESTYLE
350
17
  3
ACAD_PLOTSETTINGS
350
19
  3
ACAD_PLOTSTYLENAME
350
E
  3
ACAD_TABLESTYLE
350
B3
  3
ACDBHEADERROUNDTRIPXREC
350
154
  3
AcDbVariableDictionary
350
128
  0
DICTIONARY
  5
DA
330
2
100
AcDbDictionary
280
     1
281
     1
  3
ACAD_LAYERSTATES
360
DB
  0
DICTIONARY
  5
B2
102
{ACAD_REACTORS
330
C
102
}
330
C
100
AcDbDictionary
281
     1
  0
DICTIONARY
  5
D
102
{ACAD_REACTORS
330
C
102
}
330
C
100
AcDbDictionary
281
     1
  0
DICTIONARY
  5
1A
102
{ACAD_REACTORS
330
C
102
}
330
C
100
AcDbDictionary
281
     1
  3
Layout1
350
1E
  3
Layout2
350
26
  3
Model
350
22
  0
DICTIONARY
  5
B1
102
{ACAD_REACTORS
330
C
102
}
330
C
100
AcDbDictionary
281
     1
  0
DICTIONARY
  5
17
102
{ACAD_REACTORS
330
C
102
}
330
C
100
AcDbDictionary
281
     1
  3
Standard
350
18
  0
DICTIONARY
  5
19
102
{ACAD_REACTORS
330
C
102
}
330
C
100
AcDbDictionary
281
     1
  0
ACDBDICTIONARYWDFLT
  5
E
102
{ACAD_REACTORS
330
C
102
}
330
C
100
AcDbDictionary
281
     1
  3
Normal
350
F
100
AcDbDictionaryWithDefault
340
F
  0
DICTIONARY
  5
B3
102
{ACAD_REACTORS
330
C
102
}
330
C
100
AcDbDictionary
281
     1
  3
Standard
350
B4
  0
DICTIONARY
  5
154
102
{ACAD_REACTORS
330
C
102
}
330
C
100
AcDbDictionary
281
     1
  0
DICTIONARY
  5
128
102
{ACAD_REACTORS
330
C
102
}
330
C
100
AcDbDictionary
281
     1
  3
CTABLESTYLE
350
129
  3
DIMASSOC
350
151
  3
PROJECTNAME
350
152
  0
DICTIONARY
  5
DB
102
{ACAD_REACTORS
330
DA
102
}
330
DA
100
AcDbDictionary
281
     1
  0
LAYOUT
  5
1E
102
{ACAD_XDICTIONARY
360
155
102
}
102
{ACAD_REACTORS
330
1A
102
}
330
1A
100
AcDbPlotSettings
  1

  2
EPSON Stylus COLOR 3000
  4

  6

 40
0.0
 41
0.0
 42
0.0
 43
0.0
 44
0.0
 45
0.0
 46
0.0
 47
0.0
 48
0.0
 49
0.0
140
0.0
141
0.0
142
1.0
143
1.0
 70
   688
 72
     0
 73
     0
 74
     5
  7

 75
    16
147
1.0
148
0.0
149
0.0
100
AcDbLayout
  1
Layout1
 70
     1
 71
     1
 10
0.0
 20
0.0
 11
12.0
 21
9.0
 12
0.0
 22
0.0
 32
0.0
 14
1.000000000000000E+20
 24
1.000000000000000E+20
 34
1.000000000000000E+20
 15
-1.000000000000000E+20
 25
-1.000000000000000E+20
 35
-1.000000000000000E+20
146
0.0
 13
0.0
 23
0.0
 33
0.0
 16
1.0
 26
0.0
 36
0.0
 17
0.0
 27
1.0
 37
0.0
 76
     0
330
1B
  0
LAYOUT
  5
26
102
{ACAD_XDICTIONARY
360
159
102
}
102
{ACAD_REACTORS
330
1A
102
}
330
1A
100
AcDbPlotSettings
  1

  2
EPSON Stylus COLOR 3000
  4

  6

 40
0.0
 41
0.0
 42
0.0
 43
0.0
 44
0.0
 45
0.0
 46
0.0
 47
0.0
 48
0.0
 49
0.0
140
0.0
141
0.0
142
1.0
143
1.0
 70
   688
 72
     0
 73
     0
 74
     5
  7

 75
    16
147
1.0
148
0.0
149
0.0
100
AcDbLayout
  1
Layout2
 70
     1
 71
     2
 10
0.0
 20
0.0
 11
12.0
 21
9.0
 12
0.0
 22
0.0
 32
0.0
 14
0.0
 24
0.0
 34
0.0
 15
0.0
 25
0.0
 35
0.0
146
0.0
 13
0.0
 23
0.0
 33
0.0
 16
1.0
 26
0.0
 36
0.0
 17
0.0
 27
1.0
 37
0.0
 76
     0
330
23
  0
LAYOUT
  5
22
102
{ACAD_XDICTIONARY
360
157
102
}
102
{ACAD_REACTORS
330
1A
102
}
330
1A
100
AcDbPlotSettings
  1

  2
EPSON Stylus COLOR 3000
  4

  6

 40
0.0
 41
0.0
 42
0.0
 43
0.0
 44
0.0
 45
0.0
 46
0.0
 47
0.0
 48
0.0
 49
0.0
140
0.0
141
0.0
142
1.0
143
1.0
 70
  1712
 72
     0
 73
     0
 74
     0
  7

 75
     0
147
1.0
148
0.0
149
0.0
100
AcDbLayout
  1
Model
 70
     1
 71
     0
 10
0.0
 20
0.0
 11
12.0
 21
9.0
 12
0.0
 22
0.0
 32
0.0
 14
0.0
 24
0.0
 34
0.0
 15
0.0
 25
0.0
 35
0.0
146
0.0
 13
0.0
 23
0.0
 33
0.0
 16
1.0
 26
0.0
 36
0.0
 17
0.0
 27
1.0
 37
0.0
 76
     0
330
1F
  0
MLINESTYLE
  5
18
102
{ACAD_REACTORS
330
17
102
}
330
17
100
AcDbMlineStyle
  2
STANDARD
 70
     0
  3

 62
   256
 51
90.0
 52
90.0
 71
     2
 49
0.5
 62
   256
  6
BYLAYER
 49
-0.5
 62
   256
  6
BYLAYER
  0
ACDBPLACEHOLDER
  5
F
102
{ACAD_REACTORS
330
E
102
}
330
E
  0
TABLESTYLE
  5
B4
102
{ACAD_REACTORS
330
B3
102
}
330
B3
100
AcDbTableStyle
  3
Standard
 70
     0
 71
     0
 40
0.06
 41
0.06
280
     0
281
     0
  7
Standard
140
0.18
170
     2
 62
     0
 63
     7
283
     0
274
    -2
284
     1
 64
     0
275
    -2
285
     1
 65
     0
276
    -2
286
     1
 66
     0
277
    -2
287
     1
 67
     0
278
    -2
288
     1
 68
     0
279
    -2
289
     1
 69
     0
  7
Standard
140
0.25
170
     5
 62
     0
 63
     7
283
     0
274
    -2
284
     1
 64
     0
275
    -2
285
     1
 65
     0
276
    -2
286
     1
 66
     0
277
    -2
287
     1
 67
     0
278
    -2
288
     1
 68
     0
279
    -2
289
     1
 69
     0
  7
Standard
140
0.18
170
     5
 62
     0
 63
     7
283
     0
274
    -2
284
     1
 64
     0
275
    -2
285
     1
 65
     0
276
    -2
286
     1
 66
     0
277
    -2
287
     1
 67
     0
278
    -2
288
     1
 68
     0
279
    -2
289
     1
 69
     0
  0
DICTIONARYVAR
  5
129
102
{ACAD_REACTORS
330
128
102
}
330
128
100
DictionaryVariables
280
     0
  1
STANDARD
  0
DICTIONARYVAR
  5
151
102
{ACAD_REACTORS
330
128
102
}
330
128
100
DictionaryVariables
280
     0
  1
1
  0
DICTIONARYVAR
  5
152
102
{ACAD_REACTORS
330
128
102
}
330
128
100
DictionaryVariables
280
     0
  1

  0
DICTIONARY
  5
155
330
1E
100
AcDbDictionary
280
     1
281
     1
  3
ACAD_XREC_ROUNDTRIP
360
156
  0
DICTIONARY
  5
159
330
26
100
AcDbDictionary
280
     1
281
     1
  3
ACAD_XREC_ROUNDTRIP
360
15A
  0
DICTIONARY
  5
157
330
22
100
AcDbDictionary
280
     1
281
     1
  3
ACAD_XREC_ROUNDTRIP
360
158
  0
XRECORD
  5
156
102
{ACAD_REACTORS
330
155
102
}
330
155
100
AcDbXrecord
280
     1
102
SHADEPLOT
 70
     0
102
SHADEPLOTRESLEVEL
 70
     2
102
SHADEPLOTCUSTOMDPI
 70
   300
  0
XRECORD
  5
15A
102
{ACAD_REACTORS
330
159
102
}
330
159
100
AcDbXrecord
280
     1
102
SHADEPLOT
 70
     0
102
SHADEPLOTRESLEVEL
 70
     2
102
SHADEPLOTCUSTOMDPI
 70
   300
  0
XRECORD
  5
158
102
{ACAD_REACTORS
330
157
102
}
330
157
100
AcDbXrecord
280
     1
102
SHADEPLOT
 70
     0
102
SHADEPLOTRESLEVEL
 70
     2
102
SHADEPLOTCUSTOMDPI
 70
   300
  0
ENDSEC
  0
EOF
